Скрыть объявление
Гость отличная новость! Мы открыли доступ к ранее скрытому контенту.

Вам доступно более 44 000 видео уроков, книг и программ без VIP статуса. Более подробно ЗДЕСЬ.

Скачать [Школа Программирования] Web-дизайн. От новичка до профи (2013) [PCRec]

Тема в разделе "Дизайн и графика", создана пользователем BlackMan, 26 мар 2015.

0/5, Голосов: 0

  1. BlackMan

    BlackMan Модератор

    Сообщения:
    12.929
    Симпатии:
    13.196
    Описание:
    Курс предназначен для новичков в веб-дизайне, желающих научится рисовать красивые, удобные, современные сайты. В курсе подробно разобраны и отработаны на практике основные правила, техники и приемы создания качественных дизайнов сайтов в программе Photoshop, верстка и программирование в курсе не рассматриваются.

    Для тех, кто знаком с основами работы в программе Photoshop. Глубоких знаний не требуется, так как на каждом уроке подробно объясняются все шаги, но вы должны иметь представление об основных инструментах и работе со слоями в этой программе.

    Чему вы научитесь: Spoiler
    По окончанию курса вы будете уметь рисовать красивые, качественные дизайны сайтов. Нарисуете дизайн блога и интернет магазина. В завершении курса мы на практике рассмотрим создание дизайна сайта с нуля на примере сайта одного из учеников.

    Программа курса: Spoiler
    Урок 1. Теория веб-дизайна
    • Введение. Что такое веб-дизайн
    • Основы хорошего дизайна
    • Цвет
    • Форма
    • Типографика
    • Основы гармоничной композиции. Единство. Пропорции. Баланс
    • Масштабируемость в веб-дизайне
    • Подготовка к работе. Необходимые программы. Настройка Photoshop для удобной работы
    • С чего начинать дизайн.
    • Чит-коды облегчающие жизнь дизайнеру.

    Урок 2. Элементы современного веб-дизайна
    • Размерная сетка
    • Структура сайта
    • Фон
    • Логотип
    • Шапка сайта
    • Визуальное разделение контента
    • Навигация
    • Иконки
    • Ярлычки и лейблы
    • 3D эффекты
    • Градиенты
    • Отражения
    • Блики
    • Тени
    • Качественная графика
    • Чит-коды облегчающие жизнь дизайнеру.

    Урок 3. Дизайн лаконичного информационного сайта
    Разработка дизайна информационного сайта с 0 в течении занятия, с полным пояснением всех используемых принципов и методик, примененных при создании проекта такого типа. Также по ходу занятия будут освещаться все нюансы работы в Photosop при создании сайта.

    Урок 4. Дизайн Крупного интернет магазина часть 1
    Детальный разбор и анализ дизайна главной страницы интернет-магазина. По ходу занятия по мимо графической составляющей также, будет рассматриваться принципы восприятия сайта такого типа потенциальными покупателями с точки зрения дизайна и техники увеличивающие продажи.

    Урок 5. Дизайн Крупного интернет магазина часть 2
    Детальный разбор и анализ дизайна остальных страницы интернет-магазина, с углубленным изучением приципов и правл реализации дизайна корзины как одного из самых главных элементов отвечающих за успешность проекта.

    Урок 6. Дизайн импровизация
    По одной из тем домашнего задания или какой либо другой выбранной вами, я в месте с вами разработаю без подготовки дизайн сата, причем основной акцент будет сделан на методику подбора и поиска информации, а также принципов реализации задуманных идей.

    Урок 7. Дизайн художественного сайта
    Дизайн сайта, со сложной художественной шапкой, разбор основных приципов сложных композиционных проектов, методы их формирования, с учетом современных требований к дизайну.

    Урок 8. Дизайн брендового продающего сайта и немного волшебства
    Главные особенности создани продающих проектов орентированных на один продук, или определенню категорию. Несколько техник по «волшебному» созданию ряда нужных и высококачественных элементов. Обобщение материала с разбором основых интересующих Вас проблем и вопросов.

    MediaInfo: Spoiler
    Общее
    Полное имя : D:\WEB\Уроки\Школа программирования\Web-дизайн. От новичка до профи 2013\001\001.mp4
    Формат : MPEG-4
    Профиль формата : Base Media / Version 2
    Идентификатор кодека : mp42
    Размер файла : 207 Мбайт
    Продолжительность : 1 ч. 33 м.
    Общий поток : 310 Кбит/сек
    Дата кодирования : UTC 2013-09-02 17:42:55
    Дата пометки : UTC 2013-09-02 17:42:55

    Видео
    Идентификатор : 1
    Формат : AVC
    Формат/Информация : Advanced Video Codec
    Профиль формата :
    Параметр CABAC формата : Да
    Параметр ReFrames формата : 4 кадра
    Параметр GOP формата : M=1, N=75
    Идентификатор кодека : avc1
    Идентификатор кодека/Информация : Advanced Video Coding
    Продолжительность : 1 ч. 33 м.
    Продолжительность оригинала : 1 ч. 33 м.
    Битрейт : 255 Кбит/сек
    Ширина : 1280 пикселей
    Высота : 1024 пикселя
    Соотношение сторон : 5:4
    Режим частоты кадров : Постоянный
    Частота кадров : 15,000 кадров/сек
    Цветовое пространство : YUV
    Субдискретизация насыщенности : 4:2:0
    Битовая глубина : 8 бит
    Тип развёртки : Прогрессивная
    Бит/(Пиксели*Кадры) : 0.013
    Размер потока : 170 Мбайт (82%)
    Размер потока оригинала : 170 Мбайт (82%)
    Язык : English
    Дата кодирования : UTC 2013-09-02 17:42:55
    Дата пометки : UTC 2013-09-02 17:42:55
    Основные цвета : BT.709
    Характеристики трансфера : BT.709
    Коэффициенты матрицы : BT.709
    mdhd_Duration : 5613947

    Аудио
    Идентификатор : 2
    Формат : AAC
    Формат/Информация : Advanced Audio Codec
    Профиль формата : LC
    Идентификатор кодека : 40
    Продолжительность : 1 ч. 33 м.
    Продолжительность оригинала : 1 ч. 33 м.
    Вид битрейта : Постоянный
    Битрейт : 53,5 Кбит/сек
    Каналы : 2 канала
    Расположение каналов : Front: L R
    Частота : 44,1 КГц
    Метод сжатия : С потерями
    Размер потока : 35,8 Мбайт (17%)
    Размер потока оригинала : 35,8 Мбайт (17%)
    Язык : English
    Дата кодирования : UTC 2013-09-02 17:42:55
    Дата пометки : UTC 2013-09-02 17:42:55
    mdhd_Duration : 5619728

    Ссылка:
    Spoiler
     
    Отзыв После просмотра материала "[Школа Программирования] Web-дизайн. От новичка до профи (2013) [PCRec]" оставьте свою оценку и отзыв в данной теме
Оценить эту тему:
/5,
Поделиться: